古哥論壇

 找回密碼
 注冊(分享大片)
查看: 1621|回復: 244
打印 上一主題 下一主題

江西时时彩开奖网站: [終結者:黑暗命運]2019.1080p.BluRay.REMUX.AVC.DTS-HD.MA.TrueHD.7.1.Atmos-FGT

  [復制鏈接]
跳轉到指定樓層
1#
發表于 2020-1-21 23:46:47 | 只看該作者 回帖獎勵 |倒序瀏覽 |閱讀模式
4K天堂


◎譯  名 終結者:黑暗命運 / Terminator 6 / 未來戰士:黑暗命運(港) / 終結者2019 / 終結者6 / 終結者6:黑暗命運 / 終結者6:黑暗宿命 / 魔鬼終結者:黑暗宿命(臺)
◎片  名 Terminator: Dark Fate
◎年  代 2019
◎產  地 美國 / 中國大陸
◎類  別 動作 / 科幻 / 冒險
◎語  言 英語
◎上映日期 2019-10-23(法國) / 2019-11-01(美國/中國大陸)
◎IMDb評分 6.4/10 from 60728 users
◎IMDb鏈接 https://www.imdb.com/title/tt6450804
◎豆瓣評分 7.1/10 from 86363 users
◎藍光高清   //www.4ktt.com
◎片  長 128分鐘
◎導  演 蒂姆·米勒 Tim Miller
◎編  劇 詹姆斯·卡梅隆 James Cameron / 查爾斯·H·伊格里 Charles H. Eglee / 喬什·弗萊德曼 Josh Friedman / 大衛·S·高耶 David S. Goyer / 賈斯汀·羅德斯 Justin Rhodes / 比利·雷 Billy Ray / 蓋爾·安妮·赫德 Gale Anne Hurd
◎主  演 麥肯茲·戴維斯 Mackenzie Davis
      娜塔利婭·雷耶斯 Natalia Reyes
      琳達·漢密爾頓 Linda Hamilton
      阿諾·施瓦辛格 Arnold Schwarzenegger
      加布里埃爾·魯納 Gabriel Luna
      迪耶戈·博內塔 Diego Boneta
      恩里克·阿爾切 Enrique Arce
      特里斯坦·烏羅阿 Tristán Ulloa
      艾麗西婭·博拉切羅 Alicia Borrachero
      布雷特·阿扎爾 Brett Azar
      史蒂芬·克里 Steven Cree
      羅謝爾·尼爾 Rochelle Neil
      弗雷澤·杰姆斯 Fraser James
      克勞迪婭·特魯希略 Claudia Trujillo
      比約恩·弗賴貝格 Bj?rn Freiberg
      約翰·蓋蒂爾 John Gettier
      彼得·奧蒙德 Peter Ormond
      Lorna Brown
      Peter Schueller


◎簡  介
  《終結者2:審判日》發生的27年后,由于未來天網派來T-800成功殺死年幼的約翰,以致令未來產生變化,一個全新進化的液態金屬終結者從未來派出,目的是追殺持有關鍵訊息的丹妮·拉莫斯、半生化人葛蕾絲和她的朋友。這使莎拉·康納以及成功殺死約翰的T800終結者前來幫助她們一行人,以共同為了人類的未來而戰。


◎獲獎情況
  第6屆豆瓣電影年度榜單(2019)
  評分最高的科幻/動作片(提名)

Video
ID : 1
Format : AVC
Format/Info : Advanced Video Codec
Format profile : [email protected]
Format settings : CABAC / 4 Ref Frames
Format settings, CABAC : Yes
Format settings, Reference frames : 4 frames
Codec ID : V_MPEG4/ISO/AVC
Duration : 2 h 8 min
Bit rate mode : Variable
Bit rate : 28.7 Mb/s
Maximum bit rate : 33.3 Mb/s
Width : 1 920 pixels
Height : 1 080 pixels
Display aspect ratio : 16:9
Frame rate mode : Constant
Frame rate : 23.976 (24000/1001) FPS
Color space : YUV
Chroma subsampling : 4:2:0
Bit depth : 8 bits
Scan type : Progressive
Bits/(Pixel*Frame) : 0.578
Stream size : 25.7 GiB (72%)
Title : Terminator.Dark.Fate.2019.1080p.BluRay.REMUX.AVC.DTS-HD.MA.TrueHD.7.1.Atmos-FGT
Language : English
Default : No
Forced : No

Audio #1
ID : 2
Format : MLP FBA 16-ch
Format/Info : Meridian Lossless Packing FBA with 16-channel presentation
Commercial name : Dolby TrueHD with Dolby Atmos
Codec ID : A_TRUEHD
Duration : 2 h 8 min
Bit rate mode : Variable
Bit rate : 4 634 kb/s
Maximum bit rate : 8 247 kb/s
Channel(s) : 8 channels
Channel layout : L R C LFE Ls Rs Lb Rb
Sampling rate : 48.0 kHz
Frame rate : 1 200.000 FPS (40 SPF)
Compression mode : Lossless
Stream size : 4.15 GiB (12%)
Title : Terminator.Dark.Fate.2019.1080p.BluRay.REMUX.AVC.DTS-HD.MA.TrueHD.7.1.Atmos-FGT
Language : English
Default : Yes
Forced : No
Number of dynamic objects : 11
Bed channel count : 1 channel
Bed channel configuration : LFE

Audio #2
ID : 3
Format : DTS XLL
Format/Info : Digital Theater Systems
Commercial name : DTS-HD Master Audio
Codec ID : A_DTS
Duration : 2 h 8 min
Bit rate mode : Variable
Bit rate : 4 060 kb/s
Channel(s) : 8 channels
Channel layout : C L R LFE Lb Rb Lss Rss
Sampling rate : 48.0 kHz
Frame rate : 93.750 FPS (512 SPF)
Bit depth : 24 bits
Compression mode : Lossless
Stream size : 3.63 GiB (10%)
Title : Terminator.Dark.Fate.2019.1080p.BluRay.REMUX.AVC.DTS-HD.MA.TrueHD.7.1.Atmos-FGT
Language : English
Default : No
Forced : No

Audio #3
ID : 4
Format : AC-3
Format/Info : Audio Coding 3
Commercial name : Dolby Digital
Codec ID : A_AC3
Duration : 2 h 8 min
Bit rate mode : Constant
Bit rate : 640 kb/s
Channel(s) : 6 channels
Channel layout : L R C LFE Ls Rs
Sampling rate : 48.0 kHz
Frame rate : 31.250 FPS (1536 SPF)
Bit depth : 16 bits
Compression mode : Lossy
Stream size : 586 MiB (2%)
Title : Terminator.Dark.Fate.2019.1080p.BluRay.REMUX.AVC.DTS-HD.MA.TrueHD.7.1.Atmos-FGT
Language : English
Service kind : Complete Main
Default : No
Forced : No

Audio #4
ID : 5
Format : AC-3
Format/Info : Audio Coding 3
Commercial name : Dolby Digital
Codec ID : A_AC3
Duration : 2 h 8 min
Bit rate mode : Constant
Bit rate : 640 kb/s
Channel(s) : 6 channels
Channel layout : L R C LFE Ls Rs
Sampling rate : 48.0 kHz
Frame rate : 31.250 FPS (1536 SPF)
Bit depth : 16 bits
Compression mode : Lossy
Stream size : 586 MiB (2%)
Title : Terminator.Dark.Fate.2019.1080p.BluRay.REMUX.AVC.DTS-HD.MA.TrueHD.7.1.Atmos-FGT
Language : English
Service kind : Complete Main
Default : No
Forced : No

Audio #5
ID : 6
Format : AC-3
Format/Info : Audio Coding 3
Commercial name : Dolby Digital
Codec ID : A_AC3
Duration : 2 h 8 min
Bit rate mode : Constant
Bit rate : 640 kb/s
Channel(s) : 6 channels
Channel layout : L R C LFE Ls Rs
Sampling rate : 48.0 kHz
Frame rate : 31.250 FPS (1536 SPF)
Bit depth : 16 bits
Compression mode : Lossy
Stream size : 586 MiB (2%)
Title : Terminator.Dark.Fate.2019.1080p.BluRay.REMUX.AVC.DTS-HD.MA.TrueHD.7.1.Atmos-FGT
Language : Spanish
Service kind : Complete Main
Default : No
Forced : No

Audio #6
ID : 7
Format : AC-3
Format/Info : Audio Coding 3
Commercial name : Dolby Digital
Codec ID : A_AC3
Duration : 2 h 8 min
Bit rate mode : Constant
Bit rate : 640 kb/s
Channel(s) : 6 channels
Channel layout : L R C LFE Ls Rs
Sampling rate : 48.0 kHz
Frame rate : 31.250 FPS (1536 SPF)
Bit depth : 16 bits
Compression mode : Lossy
Stream size : 586 MiB (2%)
Title : Terminator.Dark.Fate.2019.1080p.BluRay.REMUX.AVC.DTS-HD.MA.TrueHD.7.1.Atmos-FGT
Language : French
Service kind : Complete Main
Default : No
Forced : No

Text #1
ID : 8
Format : UTF-8
Codec ID : S_TEXT/UTF8
Codec ID/Info : UTF-8 Plain Text
Duration : 1 h 57 min
Bit rate : 31 b/s
Count of elements : 1078
Stream size : 27.2 KiB (0%)
Title : English-SRT
Language : English
Default : Yes
Forced : No

Text #2
ID : 9
Format : UTF-8
Codec ID : S_TEXT/UTF8
Codec ID/Info : UTF-8 Plain Text
Duration : 1 h 57 min
Bit rate : 39 b/s
Count of elements : 1387
Stream size : 34.3 KiB (0%)
Title : English-SDH-SRT
Language : English
Default : No
Forced : No

Text #3
ID : 10
Format : PGS
Muxing mode : zlib
Codec ID : S_HDMV/PGS
Codec ID/Info : Picture based subtitle format used on BDs/HD-DVDs
Duration : 1 h 57 min
Bit rate : 20.1 kb/s
Count of elements : 2100
Stream size : 16.9 MiB (0%)
Title : English-PGS
Language : English
Default : No
Forced : No

Text #4
ID : 11
Format : PGS
Muxing mode : zlib
Codec ID : S_HDMV/PGS
Codec ID/Info : Picture based subtitle format used on BDs/HD-DVDs
Duration : 1 h 57 min
Bit rate : 27.3 kb/s
Count of elements : 2778
Stream size : 22.9 MiB (0%)
Title : English-SDH-PGS
Language : English
Default : No
Forced : No

Text #5
ID : 12
Format : PGS
Muxing mode : zlib
Codec ID : S_HDMV/PGS
Codec ID/Info : Picture based subtitle format used on BDs/HD-DVDs
Duration : 2 h 7 min
Bit rate : 18.3 kb/s
Count of elements : 2150
Stream size : 16.7 MiB (0%)
Title : Spanish-PGS
Language : Spanish
Default : No
Forced : No

Text #6
ID : 13
Format : PGS
Muxing mode : zlib
Codec ID : S_HDMV/PGS
Codec ID/Info : Picture based subtitle format used on BDs/HD-DVDs
Duration : 2 h 5 min
Bit rate : 316 b/s
Count of elements : 28
Stream size : 290 KiB (0%)
Title : Spanish-FORCED-PGS
Language : Spanish
Default : No
Forced : No

Text #7
ID : 14
Format : PGS
Muxing mode : zlib
Codec ID : S_HDMV/PGS
Codec ID/Info : Picture based subtitle format used on BDs/HD-DVDs
Duration : 2 h 7 min
Bit rate : 20.9 kb/s
Count of elements : 2468
Stream size : 19.2 MiB (0%)
Title : French-PGS
Language : French
Default : No
Forced : No

Text #8
ID : 15
Format : PGS
Muxing mode : zlib
Codec ID : S_HDMV/PGS
Codec ID/Info : Picture based subtitle format used on BDs/HD-DVDs
Duration : 2 h 4 min
Bit rate : 2 000 b/s
Count of elements : 264
Stream size : 1.78 MiB (0%)
Title : French-FORCED-PGS
Language : French
Default : No
Forced : No

Menu
00:00:00.000 : en:Chapter 01
00:04:19.842 : en:Chapter 02
00:07:48.926 : en:Chapter 03
00:11:47.915 : en:Chapter 04
00:16:56.348 : en:Chapter 05
00:22:10.662 : en:Chapter 06
00:29:00.613 : en:Chapter 07
00:33:25.753 : en:Chapter 08
00:41:35.493 : en:Chapter 09
00:47:02.694 : en:Chapter 10
00:53:08.935 : en:Chapter 11
00:57:56.806 : en:Chapter 12
01:05:02.690 : en:Chapter 13
01:13:07.966 : en:Chapter 14
01:20:46.258 : en:Chapter 15
01:27:29.744 : en:Chapter 16
01:32:48.688 : en:Chapter 17
01:41:45.557 : en:Chapter 18
01:49:35.318 : en:Chapter 19
01:57:58.488 : en:Chapter 20




游客,如果您要查看本帖隱藏內容請回復,如果您想無廣告、免回復、下載附件免影視幣請開通VIP:VIP傳送門



古哥影視論壇江西时时彩停售公告 www.iuwjp.tw 高清電影,藍光電影,最新電影,電影天堂,影視帝國,人人影視
2#
發表于 2020-1-21 23:52:32 | 只看該作者
感謝分享,下載看看
古哥影視論壇江西时时彩停售公告 www.iuwjp.tw 高清電影,藍光電影,最新電影,電影天堂,影視帝國,人人影視
3#
發表于 2020-1-21 23:56:24 | 只看該作者
rhf rhf 看看好看嗎?
古哥影視論壇江西时时彩停售公告 www.iuwjp.tw 高清電影,藍光電影,最新電影,電影天堂,影視帝國,人人影視
4#
發表于 2020-1-21 23:58:09 | 只看該作者
謝謝分享 收藏了
古哥影視論壇江西时时彩停售公告 www.iuwjp.tw 高清電影,藍光電影,最新電影,電影天堂,影視帝國,人人影視
5#
發表于 2020-1-22 00:10:07 | 只看該作者
感謝樓主的分享??!
古哥影視論壇江西时时彩停售公告 www.iuwjp.tw 高清電影,藍光電影,最新電影,電影天堂,影視帝國,人人影視
7#
發表于 2020-1-22 00:14:29 | 只看該作者

這東西我收了!謝謝樓主!古哥影視真好!一定要堅持下去,支持不住時請讓大家捐助
古哥影視論壇江西时时彩停售公告 www.iuwjp.tw 高清電影,藍光電影,最新電影,電影天堂,影視帝國,人人影視
8#
發表于 2020-1-22 00:28:49 | 只看該作者

既然你誠信誠意的推薦了,那我就勉為其難的看看吧!愛電影,愛生活古哥影視不走平凡路。
古哥影視論壇江西时时彩停售公告 www.iuwjp.tw 高清電影,藍光電影,最新電影,電影天堂,影視帝國,人人影視
9#
發表于 2020-1-22 00:44:34 | 只看該作者

樓主,大恩不言謝了!我只能將古哥影視分享給我的電影愛好者群里!
古哥影視論壇江西时时彩停售公告 www.iuwjp.tw 高清電影,藍光電影,最新電影,電影天堂,影視帝國,人人影視
10#
發表于 2020-1-22 00:51:30 | 只看該作者
感謝樓主分享
古哥影視論壇江西时时彩停售公告 www.iuwjp.tw 高清電影,藍光電影,最新電影,電影天堂,影視帝國,人人影視
11#
發表于 2020-1-22 01:13:17 | 只看該作者
很好很好很好
古哥影視論壇江西时时彩停售公告 www.iuwjp.tw 高清電影,藍光電影,最新電影,電影天堂,影視帝國,人人影視
12#
發表于 2020-1-22 07:41:44 | 只看該作者
多謝分享,下載嘍
古哥影視論壇江西时时彩停售公告 www.iuwjp.tw 高清電影,藍光電影,最新電影,電影天堂,影視帝國,人人影視
13#
發表于 2020-1-22 08:02:20 | 只看該作者
太好了 謝謝分享 謝謝
古哥影視論壇江西时时彩停售公告 www.iuwjp.tw 高清電影,藍光電影,最新電影,電影天堂,影視帝國,人人影視
14#
發表于 2020-1-22 08:39:13 | 只看該作者
樓主發貼辛苦了,謝謝樓主分享!我覺得古哥影視的電影是最值得收藏的!
古哥影視論壇江西时时彩停售公告 www.iuwjp.tw 高清電影,藍光電影,最新電影,電影天堂,影視帝國,人人影視
15#
發表于 2020-1-22 08:41:12 | 只看該作者
終于來大容量的了!
古哥影視論壇江西时时彩停售公告 www.iuwjp.tw 高清電影,藍光電影,最新電影,電影天堂,影視帝國,人人影視
16#
發表于 2020-1-22 08:41:24 | 只看該作者

樓主太厲害了!樓主,I*老*虎*U!古哥影視絕對是電影愛好的天堂!
古哥影視論壇江西时时彩停售公告 www.iuwjp.tw 高清電影,藍光電影,最新電影,電影天堂,影視帝國,人人影視
17#
發表于 2020-1-22 08:58:29 | 只看該作者
感謝樓主的分享~
古哥影視論壇江西时时彩停售公告 www.iuwjp.tw 高清電影,藍光電影,最新電影,電影天堂,影視帝國,人人影視
18#
發表于 2020-1-22 09:38:35 | 只看該作者
下來春節看的,謝謝分享。
古哥影視論壇江西时时彩停售公告 www.iuwjp.tw 高清電影,藍光電影,最新電影,電影天堂,影視帝國,人人影視
19#
發表于 2020-1-22 09:48:04 | 只看該作者

這個帖子不回對不起自己!我想我是一天也不能離開古哥影視。
古哥影視論壇江西时时彩停售公告 www.iuwjp.tw 高清電影,藍光電影,最新電影,電影天堂,影視帝國,人人影視
20#
發表于 2020-1-22 09:51:50 | 只看該作者
樓主發貼辛苦了,謝謝樓主分享!我覺得古哥影視的電影是最值得收藏的!
古哥影視論壇江西时时彩停售公告 www.iuwjp.tw 高清電影,藍光電影,最新電影,電影天堂,影視帝國,人人影視
懶得打字嘛,點擊右側快捷回復->
您需要登錄后才可以回帖 登錄 | 注冊(分享大片)

本版積分規則

江西时时彩停售公告
本站提供網上學習交流和自由討論使用,所有資源均來自互聯網公開渠道,發布和個人言論并不代表本站立場,本站不負任何責任.
如發現有侵權行為,請與我們聯系.我們將立刻從網站上刪除,并向所有持版權者致最深歉意.
影視帝國論壇已經安全運行

QQ|小黑屋|手機版|Archiver|江西时时彩停售公告

GMT+8, 2020-2-23 02:37 , Processed in 0.209606 second(s), 21 queries , Gzip On.

Powered by Discuz! X3.4

© 2001-2017 Comsenz Inc.

快速回復 江西时时彩停售公告 返回列表