江西时时彩停售公告

 找回密码
 注册(分享大片)
查看: 550|回复: 17
打印 上一主题 下一主题

江西时时彩现在还有吗: [720P] [马大姐/大妈]Ma.2019.720p.BluRay.x264.DTS-FGT 4.86GB

[复制链接]
跳转到指定楼层
1#
发表于 2019-8-25 22:03:55 | 只看该作者 回帖奖励 |倒序浏览 |阅读模式
4K天堂

◎译  名 马大姐/大妈/恐怖大妈(港/台)/老母/妈妈
◎片  名 Ma
◎年  代 2019
◎产  地 美国
◎类  别 惊悚/恐怖
◎语  言 英语
◎上映日期 2019-05-31(美国)
◎IMDb评分  5.7/10 from 12,392 users
◎蓝光电影   //www.4ktt.com         
◎豆瓣评分 5.2/10 from 1126 users
◎豆瓣链接 https://douban.com/subject/30137082/
◎片  长 99分钟
◎导  演 泰特·泰勒 Tate Taylor
◎编  剧 斯科蒂·兰德斯 Scotty Landes
◎主  演 奥克塔维亚·斯宾瑟 Octavia Spencer
       米西·派勒 Missi Pyle
       卢克·伊万斯 Luke Evans
       朱丽叶特·刘易斯 Juliette Lewis
       戴安娜·西尔弗斯 Diana Silvers
       艾莉森·珍妮 Allison Janney
       麦克利·米勒 McKaley Miller
       多米尼克·伯吉斯 Dominic Burgess
       维克托·特平 Victor Turpin
       丹特·布朗 Dante Brown
       柯瑞·福格尔玛尼斯 Corey Fogelmanis
       可亚娜·西蒙妮·辛普森 Kyanna Simone Simpson
       安德鲁·马修·韦尔奇 Andrew Matthew Welch

◎简  介
  故事讲述一群年轻人结识了一个陌生女子,陌生人热情地邀请这群年轻人在自己的家中开Party,然而意外和恐怖的事情却接连发生……
  
  1. Video
  2. ID : 1
  3. Format : AVC
  4. Format/Info : Advanced Video Codec
  5. Format profile : [email protected]
  6. Format settings : CABAC / 4 Ref Frames
  7. Format settings, CABAC : Yes
  8. Format settings, Reference frames : 4 frames
  9. Codec ID : V_MPEG4/ISO/AVC
  10. Duration : 1 h 39 min
  11. Bit rate : 5 500 kb/s
  12. Width : 1 280 pixels
  13. Height : 536 pixels
  14. Display aspect ratio : 2.40:1
  15. Frame rate mode : Constant
  16. Frame rate : 23.976 (24000/1001) FPS
  17. Color space : YUV
  18. Chroma subsampling : 4:2:0
  19. Bit depth : 8 bits
  20. Scan type : Progressive
  21. Bits/(Pixel*Frame) : 0.334
  22. Stream size : 3.82 GiB (78%)
  23. Title : Ma.2019.720p.BluRay.x264.DTS-FGT
  24. Writing library : x264 core 148 r2748 97eaef2
  25. Encoding settings : cabac=1 / ref=4 / deblock=1:-2:-2 / analyse=0x3:0x113 / me=umh / subme=9 / psy=1 / psy_rd=1.00:0.15 / mixed_ref=1 / me_range=16 / chroma_me=1 / trellis=2 / 8x8dct=1 / cqm=0 / deadzone=21,11 / fast_pskip=1 / chroma_qp_offset=-3 / threads=24 / lookahead_threads=3 / sliced_threads=0 / nr=0 / decimate=1 / interlaced=0 / bluray_compat=0 / constrained_intra=0 / bframes=3 / b_pyramid=2 / b_adapt=1 / b_bias=0 / direct=3 / weightb=1 / open_gop=0 / weightp=2 / keyint=250 / keyint_min=25 / scenecut=40 / intra_refresh=0 / rc_lookahead=50 / rc=2pass / mbtree=1 / bitrate=5500 / ratetol=1.0 / qcomp=0.60 / qpmin=0 / qpmax=69 / qpstep=4 / cplxblur=20.0 / qblur=0.5 / vbv_maxrate=31250 / vbv_bufsize=31250 / nal_hrd=none / filler=0 / ip_ratio=1.40 / aq=1:1.00
  26. Language : English
  27. Default : Yes
  28. Forced : No

  29. Audio
  30. ID : 2
  31. Format : DTS
  32. Format/Info : Digital Theater Systems
  33. Codec ID : A_DTS
  34. Duration : 1 h 39 min
  35. Bit rate mode : Constant
  36. Bit rate : 1 509 kb/s
  37. Channel(s) : 6 channels
  38. Channel layout : C L R Ls Rs LFE
  39. Sampling rate : 48.0 kHz
  40. Frame rate : 93.750 FPS (512 SPF)
  41. Bit depth : 24 bits
  42. Compression mode : Lossy
  43. Stream size : 1.05 GiB (22%)
  44. Title : Ma.2019.720p.BluRay.x264.DTS-FGT
  45. Language : English
  46. Default : Yes
  47. Forced : No

  48. Text
  49. ID : 3
  50. Format : UTF-8
  51. Codec ID : S_TEXT/UTF8
  52. Codec ID/Info : UTF-8 Plain Text
  53. Duration : 1 h 38 min
  54. Bit rate : 61 b/s
  55. Count of elements : 1399
  56. Stream size : 44.4 KiB (0%)
  57. Language : English
  58. Default : Yes
  59. Forced : No
复制代码









Ma.2019.720p.BluRay.x264.DTS-FGT.torrent (49.16 KB, 下载次数: 23)

提示:如迅雷下载提示"任务出错"、"因版权无法下载",请更换【迅雷5】,提取码: ai7u
古哥影视论坛江西时时彩停售公告 www.iuwjp.tw 高清电影,蓝光电影,最新电影,电影天堂,影视帝国,人人影视
提示:如迅雷下载提示"任务出错"、"因版权无法下载",请更换【迅雷5】,提取码: ai7u
2#
发表于 2019-8-25 22:51:40 | 只看该作者
楼主发贴辛苦了,谢谢楼主分享!我觉得古哥影视的电影是最值得收藏的!
古哥影视论坛江西时时彩停售公告 www.iuwjp.tw 高清电影,蓝光电影,最新电影,电影天堂,影视帝国,人人影视
3#
发表于 2019-8-25 23:14:48 | 只看该作者
回帖是美德,谢谢分享??!
古哥影视论坛江西时时彩停售公告 www.iuwjp.tw 高清电影,蓝光电影,最新电影,电影天堂,影视帝国,人人影视
4#
发表于 2019-8-26 00:08:22 | 只看该作者
楼主发贴辛苦了,谢谢楼主分享!
古哥影视论坛江西时时彩停售公告 www.iuwjp.tw 高清电影,蓝光电影,最新电影,电影天堂,影视帝国,人人影视
5#
发表于 2019-8-26 00:36:49 | 只看该作者
多谢分享,支持楼主发片
古哥影视论坛江西时时彩停售公告 www.iuwjp.tw 高清电影,蓝光电影,最新电影,电影天堂,影视帝国,人人影视
6#
发表于 2019-8-26 00:38:00 | 只看该作者
多谢分享,支持楼主发片
古哥影视论坛江西时时彩停售公告 www.iuwjp.tw 高清电影,蓝光电影,最新电影,电影天堂,影视帝国,人人影视
7#
发表于 2019-8-26 11:14:15 | 只看该作者

这个帖子不回对不起自己!我想我是一天也不能离开古哥影视。
古哥影视论坛江西时时彩停售公告 www.iuwjp.tw 高清电影,蓝光电影,最新电影,电影天堂,影视帝国,人人影视
8#
发表于 2019-8-26 12:05:02 | 只看该作者

楼主发贴辛苦了,谢谢楼主
古哥影视论坛江西时时彩停售公告 www.iuwjp.tw 高清电影,蓝光电影,最新电影,电影天堂,影视帝国,人人影视
9#
发表于 2019-8-26 12:34:56 | 只看该作者
感谢楼主分享
古哥影视论坛江西时时彩停售公告 www.iuwjp.tw 高清电影,蓝光电影,最新电影,电影天堂,影视帝国,人人影视
10#
发表于 2019-8-26 19:35:13 | 只看该作者

我看不错噢 谢谢楼主!古哥影视越来越好,高清电影还得上这来下载!
古哥影视论坛江西时时彩停售公告 www.iuwjp.tw 高清电影,蓝光电影,最新电影,电影天堂,影视帝国,人人影视
11#
发表于 2019-8-27 19:33:47 | 只看该作者
楼主发贴辛苦了,谢谢楼主分享!
古哥影视论坛江西时时彩停售公告 www.iuwjp.tw 高清电影,蓝光电影,最新电影,电影天堂,影视帝国,人人影视
12#
发表于 2019-8-28 10:41:36 | 只看该作者
楼主发贴辛苦了,谢谢楼主分享!
古哥影视论坛江西时时彩停售公告 www.iuwjp.tw 高清电影,蓝光电影,最新电影,电影天堂,影视帝国,人人影视
13#
发表于 2019-8-30 00:00:42 | 只看该作者
这是部精彩的电影!谢谢楼主分享!
古哥影视论坛江西时时彩停售公告 www.iuwjp.tw 高清电影,蓝光电影,最新电影,电影天堂,影视帝国,人人影视
14#
发表于 2019-8-30 00:22:03 | 只看该作者
非常喜欢谢谢分享
古哥影视论坛江西时时彩停售公告 www.iuwjp.tw 高清电影,蓝光电影,最新电影,电影天堂,影视帝国,人人影视
15#
发表于 2019-9-1 07:28:59 | 只看该作者
谢谢楼主分享
古哥影视论坛江西时时彩停售公告 www.iuwjp.tw 高清电影,蓝光电影,最新电影,电影天堂,影视帝国,人人影视
16#
发表于 2019-9-4 21:12:02 | 只看该作者
下载来看看
古哥影视论坛江西时时彩停售公告 www.iuwjp.tw 高清电影,蓝光电影,最新电影,电影天堂,影视帝国,人人影视
18#
发表于 5 天前 | 只看该作者
这个帖子不回对不起自己!我想我是一天也不能离开古哥影视。





....
古哥影视论坛江西时时彩停售公告 www.iuwjp.tw 高清电影,蓝光电影,最新电影,电影天堂,影视帝国,人人影视
懒得打字嘛,点击右侧快捷回复->
您需要登录后才可以回帖 登录 | 注册(分享大片)

本版积分规则

江西时时彩停售公告
本站提供网上学习交流和自由讨论使用,所有资源均来自互联网公开渠道,发布和个人言论并不代表本站立场,本站不负任何责任.
如发现有侵权行为,请与我们联系.我们将立刻从网站上删除,并向所有持版权者致最深歉意.
影视帝国论坛已经安全运行

QQ|小黑屋|手机版|Archiver|江西时时彩停售公告

GMT+8, 2019-9-16 03:00 , Processed in 0.225724 second(s), 19 queries , Gzip On.

Powered by Discuz! X3.4

© 2001-2017 Comsenz Inc.

快速回复 江西时时彩停售公告 返回列表